torrentsmafia

free download whatever you want
    New Download Links
    Speed
     kbps
     kbps
     kbps

    REAKTOR Know-How: Blocks (2017)

    Category: Tutorials data: 6-08-2017, 21:53

    http://i95.fastpic.ru/big/2017/0807/2c/0c7428655508ab727524313b6f416b2c.jpg
    REAKTOR Know-How: Blocks (2017)
    WEBRip | English | MP4 | 1280 x 720 | AVC ~516 kbps | 30 fps
    AAC | 256 Kbps | 44.1 KHz | 2 channels | 03:12:56 | 1.17 GB
    Genre: Video Tutorial / Sound Processing, Music Production, Sound Engineering


    Synth guru Sami Rabia returns with more in-depth video tutorials about Native Instruments REAKTOR. Blocks are up next and are REAKTOR's modular based components that work just like real-world modular components and beyond!
    See the individual tutorial descriptions below for more info. If you use REAKTOR, and want to get into virtual modular synthesis and control, this is the place to start... Watch"REAKTOR Know-How: Blocks" today!

    General
    Complete name :10DigilogModulesPt2.mp4
    Format : MPEG-4
    Format profile : Base Media
    Codec ID : isom (isom/iso2/avc1/mp41)
    File size : 29.7 MiB
    Duration : 5 min 18 s
    Overall bit rate : 783 kb/s
    Collection : REAKTOR Know-How: Blocks
    Season : 0
    Album/Performer : Sami Rabia
    Part : 10
    Part/Position : 1
    Part/Total : 1
    Track name : Digilog Modules Pt. 2
    Track name/Position : 10
    Track name/Total : 17
    Performer : REAKTOR Know-How: Blocks
    Genre : Video Training
    ContentType : TV Show

    Video
    ID : 1
    Format : AVC
    Format/Info : Advanced Video Codec
    Format profile : [email protected]
    Format settings, CABAC : Yes
    Format settings, ReFrames : 4 frames
    Codec ID : avc1
    Codec ID/Info : Advanced Video Coding
    Duration : 5 min 18 s
    Bit rate : 516 kb/s
    Width : 1 280 pixels
    Height : 720 pixels
    Display aspect ratio : 16:9
    Frame rate mode : Variable
    Frame rate : 30.000 FPS
    Minimum frame rate : 15.000 FPS
    Maximum frame rate : 30.000 FPS
    Color space : YUV
    Chroma subsampling : 4:2:0
    Bit depth : 8 bits
    Scan type : Progressive
    Bits/(Pixel*Frame) : 0.019
    Stream size : 19.7 MiB (66%)
    Writing library : x264 core 142 r2479 dd79a61
    Language : English
    Color range : Limited
    Color primaries : BT.709
    Transfer characteristics : BT.709
    Matrix coefficients : BT.709
    Menus : 3

    Audio
    ID : 2
    Format : AAC
    Format/Info : Advanced Audio Codec
    Format profile : LC
    Codec ID : 40
    Duration : 5 min 18 s
    Bit rate mode : Constant
    Bit rate : 256 kb/s
    Channel(s) : 2 channels
    Channel positions : Front: L R
    Sampling rate : 44.1 kHz
    Frame rate : 43.066 FPS (1024 spf)
    Compression mode : Lossy
    Stream size : 9.71 MiB (33%)
    Language : English
    Default : Yes
    Alternate group : 1
    Menus : 3

    Menu #1
    ID : 3
    Codec ID : text
    Duration : 5 min 18 s
    Language : English
    Menu For : 1,2
    00:00:00.000 : Chapter 1

    Menu #2
    00:00:00.000 : Chapter 1

    http://i94.fastpic.ru/big/2017/0807/4d/c657d2cc9107d78010561a17b25e354d.jpg

    Download link:


    Links are Interchangeable - No Password - Single Extraction


    Free Full Download REAKTOR Know-How: Blocks (2017) form MediaFire.com link RapidShare, ifile.it, Uploaded.to, Zippyshare, FileSonic, turbobit.net, ul.to, ORON, DepositFiles, hotfile.com, rapidgator.net, letitbit.net, extabit.com, filefactory.com. REAKTOR Know-How: Blocks (2017) Torrent Download with keygen, crack, serial, dvdrip, hdrip, 720p, 2013, 2015, 2016
    {related-words}

    Groove3 - REAKTOR Know-How Blocks

    Groove3 - REAKTOR Know-How Blocks Total Size: 804.64 MB...

    Groove3 - REAKTOR Know-How Blocks.

    Groove3 - REAKTOR Know-How Blocks Total Size: 804.64 MB Synth guru Sami Rabia returns with more in-depth video tutorials about Native Instruments REAKTOR. Blocks are up next and are REAKTOR's modular based components that work just like real-world modular components and beyond!...

    ×

    Information

    Users of Guests are not allowed to comment this publication.
Mia Spain - 13 septiembre 2017
Mia Spain - 13 septiembre 2017 Spanish | 68 pages | True PDF | 16.6 MB
Family-School Partnerships in Context
Family-School Partnerships in Context by Susan M. Sheridan, Elizabeth Moorman
The Fine Art of Paper Flowers A Guide to Making Beautiful and
The Fine Art of Paper Flowers: A Guide to Making Beautiful and Lifelike
Fallen Astronauts Heroes Who Died Reaching for the Moon,
Fallen Astronauts : Heroes Who Died Reaching for the Moon, Revised Edition by
Big Fish Audio & Funk/Soul Productions - Vintage Horns 2
Big Fish Audio & Funk/Soul Productions - Vintage Horns 2 KONTAKT Big
Chief Architect Premier X9 19.3.1.7 (x64)
Chief Architect Premier X9 19.3.1.7 (x64) Chief Architect Premier X9
Chief Architect Premier X9 19.3.1.7 (x64)
Chief Architect Premier X9 19.3.1.7 (x64) Chief Architect Premier X9
System Mechanic 14.5.1.37 170918
System Mechanic 14.5.1.37 170918 System Mechanic 14.5.1.37 | 46.5 Mb System
Vectors - Cartoon Santa Clauses 13
Vectors - Cartoon Santa Clauses 13 3 AI | +TIFF Preview | 62 MB
Photos - Chocolate Cakes Set 16
Photos - Chocolate Cakes Set 16 5 JPG | 6016x3842 - 7360x4907 | 50 MB
Quality Wallpaper In High Resolution. Part (135)
Quality Wallpaper In High Resolution. Part (135) 379 JPG | 1920X1080 -
Vectors - White Page Corners 3
Vectors - White Page Corners 3 3 AI+TIFF | 68.24 Mb

Free Download What U want.

Not Store Any File In Server. The Links Are Provided Solely By This Site's Users.

If You Have Any Doubts About Legality Of Content Or You Have Another Suspicions, Feel Free To Contact US.
2012-2016